Advertising (remove)

CzechVR - 055 - Angel Piaff Oculus

seeders: 4
leechers: 8
updated:
Added by anonymouslove5540 in XXX > Video
Torrent verified. Downloaded 48 times.

DownloadFast Safe Anonymous
movies, software, shows...
CzechVR - 055 - Angel Piaff Oculus (Size: 3.29 GB)
  055-czechvr-3d-3840x1920-60fps-oculusrift.mp4 3.29 GB
  Official Screens
  Thumbnails
Advertising (remove)

Description

Preview:



CzechVR.com - 055 - Angel Piaff (Oculus)




Official Description: Alright! We teased you with her juicy pussy and now its time for the whole course! Angel Piaff will give you the full virtual reality experience and youre going to love it! Starting you off with some very groovy strip tease, followed up by a grade A blowjob, she will ride your cock almost to an orgasm, but she since shes a "hands-on" kind of girl, she will finish you up with her gently hands. Check her out!

Sex Acts/Description of Girl: Strip, Tease, Blowjob, Reverse Cowgirl, Cowgirl, Caucasian, Natural Tits, Blonde

Thumbnails : Show

MediaInfo : Show Format : MPEG-4
Format profile : Base Media / Version 2
Codec ID : mp42 (isom/iso2/avc1/mp41)
File size : 3.29 GiB
Duration : 15mn 36s
Overall bit rate mode : Variable
Overall bit rate : 30.2 Mbps
Encoded date : UTC 2016-04-05 10:34:35
Tagged date : UTC 2016-04-05 10:34:35
Writing application : HandBrake 0.10.5 2016021100

Video
ID : 1
Format : AVC
Format/Info : Advanced Video Codec
Format profile : [email protected]
Format settings, CABAC : Yes
Format settings, ReFrames : 4 frames
Codec ID : avc1
Codec ID/Info : Advanced Video Coding
Duration : 15mn 36s
Bit rate : 30.0 Mbps
Width : 3 840 pixels
Height : 1 920 pixels
Display aspect ratio : 2.000
Frame rate mode : Variable
Frame rate : 59.940 (60000/1001) fps
Minimum frame rate : 59.920 fps
Maximum frame rate : 59.960 fps
Color space : YUV
Chroma subsampling : 4:2:0
Bit depth : 8 bits
Scan type : Progressive
Bits/(Pixel*Frame) : 0.068
Stream size : 3.27 GiB (99%)
Writing library : x264 core 142 r2479 dd79a61
Encoding settings : cabac=1 / ref=2 / deblock=1:0:0 / analyse=0x3:0x113 / me=hex / subme=6 / psy=1 / psy_rd=1.00:0.00 / mixed_ref=1 / me_range=16 / chroma_me=1 / trellis=1 / 8x8dct=1 / cqm=0 / deadzone=21,11 / fast_pskip=1 / chroma_qp_offset=-2 / threads=6 / lookahead_threads=1 / sliced_threads=0 / nr=0 / decimate=1 / interlaced=0 / bluray_compat=0 / constrained_intra=0 / bframes=3 / b_pyramid=2 / b_adapt=1 / b_bias=0 / direct=1 / weightb=1 / open_gop=0 / weightp=1 / keyint=600 / keyint_min=60 / scenecut=40 / intra_refresh=0 / rc_lookahead=30 / rc=2pass / mbtree=1 / bitrate=30000 / ratetol=1.0 / qcomp=0.60 / qpmin=0 / qpmax=69 / qpstep=4 / cplxblur=20.0 / qblur=0.5 / ip_ratio=1.40 / aq=1:1.00
Encoded date : UTC 2016-04-05 10:34:35
Tagged date : UTC 2016-04-05 10:34:35
Color range : Limited
Color primaries : BT.709
Transfer characteristics : BT.709
Matrix coefficients : BT.709

Audio
ID : 2
Format : AAC
Format/Info : Advanced Audio Codec
Format profile : LC
Codec ID : 40
Duration : 15mn 36s
Bit rate mode : Variable
Bit rate : 162 Kbps
Channel(s) : 2 channels
Channel positions : Front: L R
Sampling rate : 48.0 KHz
Frame rate : 46.875 fps (1024 spf)
Compression mode : Lossy
Stream size : 18.1 MiB (1%)
Title : Stereo / Stereo
Language : English
Default : Yes
Alternate group : 1
Encoded date : UTC 2016-04-05 10:34:35
Tagged date : UTC 2016-04-05 10:34:35

Related Torrents

torrent name size files age seed leech

Sharing Widget


Download torrent
3.29 GB
seeders:4
leechers:8
CzechVR - 055 - Angel Piaff Oculus



To share this torrent use the code below and insert it into comments, status messages, forum posts or your signature.

Torrent: CzechVR - 055 - Angel Piaff Oculus

Trackers

tracker name
udp://tracker.openbittorrent.com:80/announce
udp://tracker.coppersurfer.tk:6969/announce
udp://p4p.arenabg.com:1337/announce
udp://tracker.opentrackr.org:1337/announce
ĀµTorrent compatible trackers list

Locations

name
KickassTorrents
Torrent hash: 373B68FFC3E903E84E0A5CF028EA4788A9A19F90

All Comments

audio
0/10
video
0/10
please, leave only comments related to that torrent
Sign In

Report a bug Open chat