Independence Day Resurgence (2016) HDTS [Multi-Audios] [Tamil+English+Hindi] 800MB [TMV RULER][TamilMV]

seeders: 24
leechers: 18
updated:
Added by TeamTamilMV896 in Movies
Downloaded 938 times.

DownloadFast Safe Anonymous
movies, software, shows...
  • add Independence Day: Resurgence to bookmarks
  • Release date: 24 June 2016
  • Writers: Nicolas Wright (screenplay), James A. Woods (screenplay), Dean Devlin (screenplay), Roland Emmerich (screenplay), James Vanderbilt (screenplay), Dean Devlin (story by), Roland Emmerich (story by), Nicolas Wright (story by), James A. Woods (story by), Dean
  • Director: Roland Emmerich
  • Languages: English , Hindi , Tamil
Summary:

Two decades after the first Independence Day invasion, Earth is faced with a new extra-Solar threat. But will mankind's new space defenses be enough?


We always knew they were coming back. After 'Independence Day' redefined the event movie genre, the next epic chapter delivers global spectacle on an unimaginable scale. Using recovered alien technology, the nations of Earth have collaborated on an immense defense program to protect the planet. But nothing can prepare us for the aliens' advanced and unprecedented force. Only the ingenuity of a few brave men and women can bring our world back from the brink of extinction.

Written by CaptFlavius7947
Available in versions: x264x265TeleSyncCam
Independence Day Resurgence (2016) HDTS [Multi-Audios] [Tamil+English+Hindi] 800MB [TMV... (Size: 849.01 MB)
  Independence Day Resurgence (2016) HDTS [Multi-Audios] [Tamil+English+Hindi] 800MB [TMV... 849.01 MB

Description

Independence Day Resurgence (2016) HDTS [Multi-Audios] [Tamil+English+Hindi] 800MB [TMV RULER][TamilMV]


Complete name :Independence Day Resurgence (2016) HDTS [Multi-Audios] [Tamil+English+Hindi] 800MB [TMV RULER][TamilMV].mkv
Format : Matroska
Format version : Version 4 / Version 2
File size : 849 MiB
Duration : 1h 50mn
Overall bit rate : 1 072 Kbps
Movie name : TamilMV.NET

Video
ID : 1
Format : AVC
Format/Info : Advanced Video Codec
Format profile : [email protected]
Format settings, CABAC : Yes
Format settings, ReFrames : 8 frames
Codec ID : V_MPEG4/ISO/AVC
Duration : 1h 50mn
Bit rate : 778 Kbps
Width : 712 pixels
Height : 376 pixels
Display aspect ratio : 1.85:1
Original display aspect ratio : 1.85:1
Frame rate mode : Constant
Frame rate : 30.000 fps
Color space : YUV
Chroma subsampling : 4:2:0
Bit depth : 8 bits
Scan type : Progressive
Bits/(Pixel*Frame) : 0.097
Stream size : 616 MiB (73%)
Title : TMV
Writing library : x264 core 148 r2638 7599210


Audio #1
ID : 2
Format : MPEG Audio
Format version : Version 1
Format profile : Layer 3
Mode : Joint stereo
Mode extension : MS Stereo
Codec ID : A_MPEG/L3
Codec ID/Hint : MP3
Duration : 1h 50mn
Bit rate mode : Constant
Bit rate : 128 Kbps
Channel(s) : 2 channels
Sampling rate : 44.1 KHz
Frame rate : 38.281 fps (1152 spf)
Compression mode : Lossy
Stream size : 101 MiB (12%)
Title : TMV RULER
Writing library : LAME3.98.2
Language : Tamil
Default : Yes
Forced : Yes

Audio #2
ID : 3
Format : AAC
Format/Info : Advanced Audio Codec
Format profile : HE-AAC / LC
Codec ID : A_AAC
Duration : 1h 50mn
Bit rate : 100.0 Kbps
Channel(s) : 2 channels
Channel positions : Front: L R
Sampling rate : 44.1 KHz / 22.05 KHz
Frame rate : 21.533 fps (1024 spf)
Compression mode : Lossy
Delay relative to video : 33ms
Stream size : 79.1 MiB (9%)
Title : TMV RULER
Language : English
Default : No
Forced : No

Audio #3
ID : 4
Format : AAC
Format/Info : Advanced Audio Codec
Format profile : LC
Codec ID : A_AAC
Duration : 1h 49mn
Bit rate : 64.0 Kbps
Channel(s) : 2 channels
Channel positions : Front: L R
Sampling rate : 44.1 KHz
Frame rate : 43.066 fps (1024 spf)
Compression mode : Lossy
Delay relative to video : 2s 500ms
Stream size : 50.1 MiB (6%)
Title : TMV RULER
Language : Hindi
Default : No
Forced : No





imageimageimageimage

Sharing Widget


Download torrent
849.01 MB
seeders:24
leechers:18
Independence Day Resurgence (2016) HDTS [Multi-Audios] [Tamil+English+Hindi] 800MB [TMV RULER][TamilMV]



To share this torrent use the code below and insert it into comments, status messages, forum posts or your signature.

Torrent: Independence Day Resurgence ...] 800MB [TMV RULER][TamilMV]

Trackers

tracker name
udp://tracker.openbittorrent.com:80/announce
udp://tracker.coppersurfer.tk:6969/announce
udp://p4p.arenabg.ch:1337/announce
udp://tracker.leechers-paradise.org:6969/announce
udp://eddie4.nl:6969/announce
udp://p4p.arenabg.com:1337/announce
udp://thetracker.org:80/announce
udp://tracker.aletorrenty.pl:2710/announce
udp://tracker.opentrackr.org:1337/announce
udp://tracker.sktorrent.net:6969/announce
ĀµTorrent compatible trackers list

Locations

name
KickassTorrents
Torrent hash: 8DB6B6F0694D98EEF53BCEFDA86E09C873545CCA

All Comments

audio
5/10
video
5/10
please, leave only comments related to that torrent
Sign In

is print n soud gud for hindi ??? Reply ASAP
audio: 8video: 8
THANKS FOR SEEDING

User Opinions

BL4CK-H4T11.69K, VIVE1209, kaustavraja1171, evans_mark809, shiva00781541, not3512, jiaghara107, yodapuss79, NRBAROT69, padmakumar22 ... And 8 more
pec2027799, ak2305267, WillMil41, creeg1235, probooy27, hchouhan023
Report a bug Open chat