The Weeknd In The Night Offical Music Video [2015] 1080p FULL-HD_ΓΔΖΞΓ

seeders: 4
leechers: 0
updated:
Added by Mohiii2009 in Movies > Music videos
Torrent verified. Downloaded 137 times.

DownloadFast Safe Anonymous
movies, software, shows...
The Weeknd In The Night Offical Music Video [2015] 1080p FULL-HD_ΓΔΖΞΓ (Size: 195.16 MB)
  The Weeknd - In The Night_Full-HD.mp4 195.08 MB
  cover-the-weeknd-in-the-night.jpg 84.43 KB

Description

image



GENERAL INFO


Album : BEAUTY BEHIND THE MADNESS
Format : MPEG-4
Format profile : Base Media
Codec ID : isom
File size : 195 MB
Duration : 6mn 27s
Overall bit rate : 4 221 Kbps
Release : ΓΔΖΞΓ


Video


Format : AVC
Bit rate : 4 090 Kbps
Width : 1 920 pixels
Height : 1 080 pixels
Display aspect ratio : 16:9
Frame rate mode : Variable
Frame rate : 23.976 fps
Minimum frame rate : 23.974 fps
Maximum frame rate : 23.981 fps
Bit depth : 8 bits
Scan type : Progressive
Stream size : 189 MiB (97%)


Audio

ID : 2
Format : AAC
Bit rate mode : Constant
Bit rate : 126 Kbps
Channel(s) : 2 channels
Channel positions : Front: L R
Sampling rate : 44.1 KHz
Compression mode : Lossy
Stream size : 5.80 MiB (3%)


SCREENSHOTS [Reduced]

image
image
image
image
image
image
image

Sharing Widget


Download torrent
195.16 MB
seeders:4
leechers:0
The Weeknd In The Night Offical Music Video [2015] 1080p FULL-HD_ΓΔΖΞΓ



To share this torrent use the code below and insert it into comments, status messages, forum posts or your signature.

Torrent: The Weeknd In The Night Offi...o [2015] 1080p FULL-HD_ΓΔΖΞΓ

Trackers

tracker name
udp://tracker.openbittorrent.com:80/announce
udp://tracker.publicbt.com:80/announce
udp://tracker.coppersurfer.tk:6969/announce
udp://glotorrents.pw:6969/announce
udp://tracker4.piratux.com:6969/announce
udp://explodie.org:6969/announce
udp://inferno.demonoid.ph:3389/announce
udp://tracker.blackunicorn.xyz:6969/announce
udp://torrent.gresille.org:80/announce
udp://tracker.opentrackr.org:1337/announce
µTorrent compatible trackers list

Locations

name
KickassTorrents
Torrent hash: 19119455DD0B08F6CCCA77C9307F803C7D15AE0C

All Comments

audio
9/10
video
8/10
please, leave only comments related to that torrent
Sign In

audio: 9video: 8
Kool Video And Tune, Good Audio And Video,

Quality Torrent

User Opinions

OptimusPr1me72.78K, vks3916.74K, nst20008095, B1tseeker6978, Marvel_Maniac4101, manispr3995, nimit19603, PersianShah520, smaftab343, alfie1990158 ... And 1 more
Report a bug Open chat